Скачать через торрент Спасти или уничтожить Серии: 1-4 из 4 Фильм бесплатно в хорошем качестве torrent

Скачивайте на UnionPeer.org фильмы через торрент без регистрации. Новинки кино в хорошем качестве через торрент. На UnionPeer.org можно скачать через торрент фильмы 2014 и 2015 годов. Самые новые фильмы.

Скачать торрент Спасти или уничтожить Серии: 1-4 из 4 бесплатно через .torrent фильм мультфильм сериал

Статистика раздачи
Размер:  4.88 GB   |    Зарегистрирован:  13 дней   |    .torrent скачан:  46 раз   |   
Раздают:  1  
   
загрузка...
 
Автор Сообщение

erzsebet

avatar erzsebet


[size=24]Спасти или уничтожить[/size]








Производство: "PRO.TV"
Год выпуска: 2013
Жанр: военный фильм, приключения
Продолжительность: 50 мин. серия

Режиссёр: Владимир Фатьянов
В ролях: Никита Зверев, Анна Снаткина, Борис Полунин, Матвей Шкуратов, Евгений Пацино, Вадим Колганов, Евгений Бахар, Игорь Злотников, Виктор Бабак, Антон Старовойтов, Кирилл Захаров, Юрий Вутто, Сергей Новицкий, Сергей Широчин, Анатолий Гурьев

Описание: Дело начинается в 1941-м году. По поручению Сталина создается специальная группа разведчиков особой секретности. Участники группы - хорошо тренированные военнослужащие, которые не знают страха, преданные Родине и высшему руководству. Их первое задание подготовил сам Сталин. По его приказу группа должна пробраться в тыл врага и разыскать Якова Джугашвили, который, вероятно, находился в плену. Как оказалось позже Яков - старший сын Сталина. Перед членами группы стоит нелегкая задача. Отказ или неповиновение карается смертью. Никто точно не знает, жив ли Яков, или нет. Возникает множество вопросов по ходу операции...

Сэмпл

Качество: WEBRip 720p
Формат: MKV
Видео кодек: H.264
Аудио кодек: AC3
Видео (1-3 серии): MPEG4 Video (H264) 1280x720 50fps ~3158kbps 0.068 bit/pixel
Видео (4-ая серия): MPEG4 Video (H264) 1280x720 24fps ~3158kbps 0.143 bit/pixel
Аудио: Dolby AC3 48000Hz stereo 192kbps
Общее
Уникальный идентификатор : 248576519950280363103503442195520049501 (0xBB0218A8B6F4D0AF96A8C9B23B06515D)
Полное имя : D:\Спасти или уничтожить (720p)\1-ая серия.mkv
Формат : Matroska
Версия формата : Version 2
Размер файла : 1,24 Гбайт
Продолжительность : 51 м. 59 с.
Общий поток : 3415 Кбит/сек
Дата кодирования : UTC 2015-09-13 11:47:17
Программа кодирования : mkvmerge v5.8.0 ('No Sleep / Pillow') built on Sep 2 2012 15:37:04
Библиотека кодирования : libebml v1.2.3 + libmatroska v1.3.0

Видео
Идентификатор : 1
Формат : AVC
Формат/Информация : Advanced Video Codec
Профиль формата : High@L3.2
Настройки формата : CABAC / 4 Ref Frames
Параметр CABAC формата : Да
Параметр RefFrames формата : 4 кадра
Идентификатор кодека : V_MPEG4/ISO/AVC
Продолжительность : 51 м. 59 с.
Битрейт : 3155 Кбит/сек
Ширина : 1280 пикселей
Высота : 720 пикселей
Соотношение сторон : 16:9
Режим частоты кадров : Постоянный
Частота кадров : 50,000 кадров/сек
Цветовое пространство : YUV
Субдискретизация насыщенности : 4:2:0
Битовая глубина : 8 бит
Тип развёртки : Прогрессивная
Бит/(Пиксели*Кадры) : 0.068
Размер потока : 1,15 Гбайт (92%)
Язык : Russian
Default : Да
Forced : Да

Аудио
Идентификатор : 2
Формат : AC-3
Формат/Информация : Audio Coding 3
Идентификатор кодека : A_AC3
Продолжительность : 51 м. 59 с.
Вид битрейта : Постоянный
Битрейт : 192 Кбит/сек
Каналы : 2 канала
Расположение каналов : Front: L R
Частота : 48,0 КГц
Частота кадров : 31,250 кадров/сек (1536 SPF)
Битовая глубина : 16 бит
Метод сжатия : С потерями
Размер потока : 71,4 Мбайт (6%)
Язык : Russian
ServiceKind/String : Complete Main
Default : Да
Forced : Да

Общее
Уникальный идентификатор : 241239970561635172120200221154349012329 (0xB57D20D8D807BED2973F461F8ADDD569)
Полное имя : D:\Спасти или уничтожить (720p)\2-ая серия.mkv
Формат : Matroska
Версия формата : Version 2
Размер файла : 1,24 Гбайт
Продолжительность : 52 м. 10 с.
Общий поток : 3411 Кбит/сек
Дата кодирования : UTC 2015-09-13 11:08:38
Программа кодирования : mkvmerge v5.8.0 ('No Sleep / Pillow') built on Sep 2 2012 15:37:04
Библиотека кодирования : libebml v1.2.3 + libmatroska v1.3.0

Видео
Идентификатор : 1
Формат : AVC
Формат/Информация : Advanced Video Codec
Профиль формата : High@L3.2
Настройки формата : CABAC / 4 Ref Frames
Параметр CABAC формата : Да
Параметр RefFrames формата : 4 кадра
Идентификатор кодека : V_MPEG4/ISO/AVC
Продолжительность : 52 м. 10 с.
Битрейт : 3152 Кбит/сек
Ширина : 1280 пикселей
Высота : 720 пикселей
Соотношение сторон : 16:9
Режим частоты кадров : Постоянный
Частота кадров : 50,000 кадров/сек
Цветовое пространство : YUV
Субдискретизация насыщенности : 4:2:0
Битовая глубина : 8 бит
Тип развёртки : Прогрессивная
Бит/(Пиксели*Кадры) : 0.068
Размер потока : 1,15 Гбайт (92%)
Язык : Russian
Default : Да
Forced : Да

Аудио
Идентификатор : 2
Формат : AC-3
Формат/Информация : Audio Coding 3
Идентификатор кодека : A_AC3
Продолжительность : 52 м. 10 с.
Вид битрейта : Постоянный
Битрейт : 192 Кбит/сек
Каналы : 2 канала
Расположение каналов : Front: L R
Частота : 48,0 КГц
Частота кадров : 31,250 кадров/сек (1536 SPF)
Битовая глубина : 16 бит
Метод сжатия : С потерями
Размер потока : 71,7 Мбайт (6%)
Язык : Russian
ServiceKind/String : Complete Main
Default : Да
Forced : Да

Общее
Уникальный идентификатор : 238429767424344156369147834156985635226 (0xB35FE7229790EC40BDBA79923570519A)
Полное имя : D:\Спасти или уничтожить (720p)\3-ая серия.mkv
Формат : Matroska
Версия формата : Version 2
Размер файла : 1,21 Гбайт
Продолжительность : 50 м. 46 с.
Общий поток : 3413 Кбит/сек
Дата кодирования : UTC 2015-09-13 12:39:57
Программа кодирования : mkvmerge v5.8.0 ('No Sleep / Pillow') built on Sep 2 2012 15:37:04
Библиотека кодирования : libebml v1.2.3 + libmatroska v1.3.0

Видео
Идентификатор : 1
Формат : AVC
Формат/Информация : Advanced Video Codec
Профиль формата : High@L3.2
Настройки формата : CABAC / 4 Ref Frames
Параметр CABAC формата : Да
Параметр RefFrames формата : 4 кадра
Идентификатор кодека : V_MPEG4/ISO/AVC
Продолжительность : 50 м. 46 с.
Битрейт : 3153 Кбит/сек
Ширина : 1280 пикселей
Высота : 720 пикселей
Соотношение сторон : 16:9
Режим частоты кадров : Постоянный
Частота кадров : 50,000 кадров/сек
Цветовое пространство : YUV
Субдискретизация насыщенности : 4:2:0
Битовая глубина : 8 бит
Тип развёртки : Прогрессивная
Бит/(Пиксели*Кадры) : 0.068
Размер потока : 1,12 Гбайт (92%)
Язык : Russian
Default : Да
Forced : Да

Аудио
Идентификатор : 2
Формат : AC-3
Формат/Информация : Audio Coding 3
Идентификатор кодека : A_AC3
Продолжительность : 50 м. 46 с.
Вид битрейта : Постоянный
Битрейт : 192 Кбит/сек
Каналы : 2 канала
Расположение каналов : Front: L R
Частота : 48,0 КГц
Частота кадров : 31,250 кадров/сек (1536 SPF)
Битовая глубина : 16 бит
Метод сжатия : С потерями
Размер потока : 69,7 Мбайт (6%)
Язык : Russian
ServiceKind/String : Complete Main
Default : Да
Forced : Да

Общее
Уникальный идентификатор : 184375738436488043946741700187299459352 (0x8AB579BEC7E2FD3FAB8BF9A97E3B3118)
Полное имя : D:\Спасти или уничтожить (720p)\4-ая серия.mkv
Формат : Matroska
Версия формата : Version 2
Размер файла : 1,19 Гбайт
Продолжительность : 49 м. 39 с.
Режим общего битрейта : Переменный
Общий поток : 3418 Кбит/сек
Дата кодирования : UTC 2015-09-13 14:04:08
Программа кодирования : mkvmerge v5.8.0 ('No Sleep / Pillow') built on Sep 2 2012 15:37:04
Библиотека кодирования : libebml v1.2.3 + libmatroska v1.3.0

Видео
Идентификатор : 1
Формат : AVC
Формат/Информация : Advanced Video Codec
Профиль формата : High@L3.1
Настройки формата : CABAC / 5 Ref Frames
Параметр CABAC формата : Да
Параметр RefFrames формата : 5 кадров
Параметр GOP формата : M=2, N=15
Идентификатор кодека : V_MPEG4/ISO/AVC
Продолжительность : 49 м. 39 с.
Вид битрейта : Переменный
Битрейт : 3158 Кбит/сек
Максимальный битрейт : 40,0 Мбит/сек
Ширина : 1280 пикселей
Высота : 720 пикселей
Соотношение сторон : 16:9
Режим частоты кадров : Постоянный
Частота кадров : 24,000 кадра/сек
Цветовое пространство : YUV
Субдискретизация насыщенности : 4:2:0
Битовая глубина : 8 бит
Тип развёртки : Прогрессивная
Бит/(Пиксели*Кадры) : 0.143
Размер потока : 1,10 Гбайт (92%)
Default : Да
Forced : Да

Аудио
Идентификатор : 2
Формат : AC-3
Формат/Информация : Audio Coding 3
Идентификатор кодека : A_AC3
Продолжительность : 49 м. 39 с.
Вид битрейта : Постоянный
Битрейт : 192 Кбит/сек
Каналы : 2 канала
Расположение каналов : Front: L R
Частота : 48,0 КГц
Частота кадров : 31,250 кадров/сек (1536 SPF)
Битовая глубина : 16 бит
Метод сжатия : С потерями
Размер потока : 68,2 Мбайт (6%)
Язык : Russian
ServiceKind/String : Complete Main
Default : Да
Forced : Да


Трекер:  [ 07-Янв-2019 20:38 ]

  

Скачать .torrent

Размер .torrent файла 7 KB


Размер: 4.88 GB
Хэш (hash) релиза: 4bb857cb5e686066c84bdcb2dae03f092d69090b
Подписка на обновления:

Еще никто не оставлял запись к записи скачать торрент Спасти или уничтожить Серии: 1-4 из 4 . Будь первым!

!Обратная связь