Скачать через торрент Французский попутчик Фильм бесплатно в хорошем качестве torrent

Скачивайте на UnionPeer.org фильмы через торрент без регистрации. Новинки кино в хорошем качестве через торрент. На UnionPeer.org можно скачать через торрент фильмы 2014 и 2015 годов. Самые новые фильмы.

Скачать торрент Французский попутчик бесплатно через .torrent фильм мультфильм сериал

Статистика раздачи
Размер:  3.21 GB   |    Зарегистрирован:  11 дней   |    .torrent скачан:  102 раза   |   
Раздают:  1  
   
загрузка...
 
Автор Сообщение

Galfimbul

avatar Galfimbul


Французский попутчик

Страна: Россия
Производство: Star Media, Стар Гелакси
Год выпуска: 2017
Жанр: боевик
Продолжительность: 01:26:43

Режиссер: Алексей Феоктистов
В ролях: Кирилл Плетнёв, Мария Андреева, Надежда Жарычева, Борис Клюев, Олег Карин

Описание: Студентка Елена Михалушкина летит в другую страну на опознание отца, погибшего в авиакатастрофе. Ещё в российском аэропорту она знакомится с Андреем Егоровым, который уже несколько лет живет и работает за границей и возвращается теперь туда. Молодой человек вызывается помочь хорошенькой девушке, которая не знает языка и совсем одна в незнакомой стране. Он сопровождает ее в госпиталь и в гостиницу. После того как они расстаются у отеля, Андрей становится свидетелем того, как на Елену нападают неизвестные и пытаются похитить ее. Егоров бросается ей на помощь и расправляется с нападавшими. Андрей с Леной пытаются понять, кому и что нужно от девушки. Но вопросов больше, чем ответов… Андрею еще не раз придется спасать Елену. Но преступникам все же удастся осуществить свою цель и похитить Елену, причем уже в России, куда Егоров вывезет девушку. Теперь Андрей должен вырвать Лену, которую уже успел полюбить, из лап злодеев. Он обязан это сделать еще и потому, что их последняя встреча закончилась ссорой. Девушка начала догадываться, что Андрей не просто так оказался рядом с ней в самолёте — он совсем не тот, за кого себя выдаёт…


Перевод: оригинал (не требуется)
Субтитры: нет
Качество: WEB-DL 1080p
Формат: МКV
Видео кодек: AVC
Аудио кодек: АС3
Видео: 1920x1080 (16:9), 25.000 fps, MPEG-4 AVC ~5 111 kbps avg
Аудио: 48.0 kHz, AC3 Dolby Digital, 2/0 (L,R) ch, ~192 kbps

General
Unique ID : 196976813689353028604182914427031680804 (0x94305AB8DF5EA5368382101BB9F47724)
Complete name : Francuzskiy.poputchik.2017.WEB-DL.(1080p).Getty.mkv
Format : Matroska
Format version : Version 4 / Version 2
File size : 3.21 GiB
Duration : 1 h 26 min
Overall bit rate : 5 305 kb/s
Movie name : Francuzskiy.poputchik.2017.WEB-DL.(1080p).Getty
Encoded date : UTC 2019-01-09 20:24:56
Writing application : mkvmerge v7.8.0 ('River Man') 32bit built on Mar 27 2015 16:18:02
Writing library : libebml v1.3.1 + libmatroska v1.4.2

Video
ID : 1
Format : AVC
Format/Info : Advanced Video Codec
Format profile : High@L4
Format settings : CABAC / 4 Ref Frames
Format settings, CABAC : Yes
Format settings, ReFrames : 4 frames
Codec ID : V_MPEG4/ISO/AVC
Duration : 1 h 26 min
Bit rate : 5 111 kb/s
Width : 1 920 pixels
Height : 1 080 pixels
Display aspect ratio : 16:9
Frame rate mode : Constant
Frame rate : 25.000 FPS
Color space : YUV
Chroma subsampling : 4:2:0
Bit depth : 8 bits
Scan type : Progressive
Bits/(Pixel*Frame) : 0.099
Stream size : 3.10 GiB (96%)
Default : Yes
Forced : No

Audio
ID : 2
Format : AC-3
Format/Info : Audio Coding 3
Codec ID : A_AC3
Duration : 1 h 26 min
Bit rate mode : Constant
Bit rate : 192 kb/s
Channel(s) : 2 channels
Channel positions : Front: L R
Sampling rate : 48.0 kHz
Frame rate : 31.250 FPS (1536 SPF)
Bit depth : 16 bits
Compression mode : Lossy
Stream size : 119 MiB (4%)
Service kind : Complete Main
Default : Yes
Forced : No
Источник http://BlaTor.org

Трекер:  [ 10-Янв-2019 15:20 ]

  

Скачать .torrent

Размер .torrent файла 16 KB


Размер: 3.21 GB
Хэш (hash) релиза: decfeb1b5db919b73e4adcede70e5dcc840255d4
Подписка на обновления:

Торренты, похожие на Французский попутчик скачать торрент

Форум Название Автор Размер S L Добавлен
Российские фильмы 2016-2018 (Новинки русского кино) ·%· Французский попутчик (2017) WEB-DLRip от GeneralFilm Galfimbul 781942784746 MB 0 0 1547137817

19:30

10-Янв-19

Российские фильмы 2016-2018 (Новинки русского кино) ·%· Французский попутчик (2017) WEB-DLRip от Files-x Galfimbul 14736936961.37 GB 0 0 1547120415

14:40

10-Янв-19

Российские фильмы 2016-2018 (Новинки русского кино) ·%· Французский попутчик (2017) WEB-DLRip-AVC от Files-x Galfimbul 14678394741.37 GB 0 0 1547116817

13:40

10-Янв-19

Еще никто не оставлял запись к записи скачать торрент Французский попутчик . Будь первым!

!Обратная связь